Thursday, 14 June 2018

Escape Plan 2: Hades full HD Movie watch online and Direct Download for free

Ray Breslin manages an elite team of security specialists trained in the art of breaking people out of the world's most impenetrable prisons. When his trusted operative, Shu Ren, is kidnapped and disappears inside the most elaborate prison ever built, Ray assembles an elite team to assist in the rescue.

Directed by Steven C. Miller
Produced by Robbie Brenner
Zack Schiller
Written by Miles Chapman
Music by The Newton Brothers
Cinematography Brandon Cox

Production
companies 
Leomus Pictures
Distributed by Summit Entertainment

Release date 

June 29, 2018

Running time 94 mins
Country United States
Language English


Cast




Sequel to the 2013 film that featured a security expert named Ray Breslin, who used his skills to test out the reliability of maximum security prisons. 
Director: Steven C. Miller 
Writer: Miles Chapman 
Stars: Dave Bautista, Baylee Curran, Sylvester Stallone 
Genres: Action | Thriller 
Country: China | USA 

RELEASE: Escape Plan 2 Hades.2018.DVDRip.XviD.AC3-EVO 

SOURCE: DVD NTSC R1 - Thanks bud :) 

ViDEO: 1700 Kbps -2 Passes 

RESOLUTiON: 720x304 

RUNTiME: 1h 33m 43s 

SUBTiTLES: No. 

AUDiO: 448 Kbps AC3 5.1 

LANGUAGE: ENGLiSH 

ENCODER: DdHD 

SPECIAL THANKS TO: DdHD & KING_DVD & HITMAN & SR & OmNiC 

NOTES: Enjoy. 



Escape Plan 2 Hades.2018.DVDRip.XviD.AC3-EVO

MAGNET/ DIRECT DOWNLOAD IN TORRENT >>>>>> DOWNLOAD
Torrent Download >>>>>>> DOWNLOAD 





General 
Format : Matroska 
Format version : Version 4 / Version 2 
File size : 814 MiB 
Duration : 1 h 33 min 
Overall bit rate : 1 215 kb/s 

Video 
ID : 1 
Format : AVC 
Format/Info : Advanced Video Codec 
Format profile : High@L4.1 
Format settings : CABAC / 4 Ref Frames 
Format settings, CABAC : Yes 
Format settings, RefFrames : 4 frames 
Codec ID : V_MPEG4/ISO/AVC 
Duration : 1 h 33 min 
Bit rate : 1 100 kb/s 
Width : 720 pixels 
Height : 304 pixels 
Display aspect ratio : 2.35:1 
Frame rate mode : Constant 
Frame rate : 23.976 (24000/1001) FPS 
Color space : YUV 
Chroma subsampling : 4:2:0 
Bit depth : 8 bits 
Scan type : Progressive 
Bits/(Pixel*Frame) : 0.210 
Stream size : 727 MiB (89%) 
Writing library : x264 core 155 r2901 7d0ff22 
Default : Yes 
Forced : No 

Audio 
ID : 2 
Format : AAC 
Format/Info : Advanced Audio Codec 
Format profile : LC 
Codec ID : A_AAC-2 
Duration : 1 h 33 min 
Bit rate : 128 kb/s 
Channel(s) : 2 channels 
Channel positions : Front: L R 
Sampling rate : 48.0 kHz 
Frame rate : 46.875 FPS (1024 SPF) 
Compression mode : Lossy 
Stream size : 85.7 MiB (11%) 
Language : English 
Default : Yes 
Forced : No 









Escape Plan 2 Hades 2018 DVDRip x264 AAC [MW]

MAGNET/ DIRECT DOWNLOAD IN TORRENT >>>>>> DOWNLOAD

Torrent Download >>>>>>> DOWNLOAD 


Genre: Action, Thriller
Quality : 720p BRRip X264 AAC

Size: 700 MB

Video: MP4 | 1280*536 | 900 Kbps

Audio: English | AAC | 100 Kbps

Runtime: 94 Min

Encoder: BRiGHT

Movie Link: http://iextv.com/watch/escape-plan-2-hades.html


Escape Plan 2 Hades 2018 720p BRRip 700 MB - iExTV

MAGNET/ DIRECT DOWNLOAD IN TORRENT >>>>>> DOWNLOAD
Torrent Download >>>>>>> DOWNLOAD 




Escape Plan 2 Hades.2018.720p.BRRip.X264.AC3-EVO

MAGNET/ DIRECT DOWNLOAD IN TORRENT >>>>>> DOWNLOAD
Torrent Download >>>>>>> DOWNLOAD 

Release Name: Escape.Plan.2.Hades.2018.720p.BRRip.X264.AC3-EVO 
Size: 2.58 GB 
Video: MKV | 1280×536 | 3650 kbps 
Audio: English | AC3 | 448 kbps 
Runtime: 1h 33m 
Subtitles: English for the foreign parts 


Escape Plan 2 Hades.2018.720p.BRRip.X264.AC3-EVO[TGx]

MAGNET/ DIRECT DOWNLOAD IN TORRENT >>>>>> DOWNLOAD
Torrent Download >>>>>>> DOWNLOAD 

Escape Plan 2 Hades.2018.720p.BRRip.X264.AC3-EVO[TGx] 

Upload provided by TorrentGalaxy

MEDIAINFO 
Container = Matroska (mkv)
Duration = 01:33:37.664
Filesize = 3 GiB
ViDEO
Codec info = AVC High@L4.1 | V_MPEG4/ISO/AVC
Resolution = 1280x536
Display AR = 2.388 | 2.40:1
Bitrate = 3 563 kb/s
Framerate = CFR 23.976
Color space = YUV
Chroma subsampling = 4:2:0
Encoder = x264 - core 142 r2479 dd79a61
AUDiO
Codec info = AC-3 | A_AC3
Channels = 6
Bitrate = CBR 448 kb/s
Samplerate = 48.0 kHz
Language = English

SCREENSHOTS 
(Click to enlarge)


Previous Post
Next Post

post written by:

0 Google+:

Please Keep in mind that if there is a link in your comment section it will be considered as spam. Comment with link will be removed instantly.
Comment to get answered or to solve a problem not to spam. Thanks