Saturday, 30 June 2018

Sanju 2018 Full movie Direct Torrent/IDM Download for Free

Sanju (2018) 1-3 DesiPre DvDRip x264 AC3 Hindi 700MB + 1.45GB

Sanju 2018 Full movie Direct Torrent/IDM Download for Free cover


IMDB Ratings : 9.3/10
Genres : Biography, Drama
Quality : 1-3 p-DvDrip
Size : 700MB + 1.45GB
Director : Rajkumar Hirani
Writer : Rajkumar Hirani, Abhijat Joshi
Stars : Ranbir Kapoor, Sonam Kapoor, Paresh Rawal


About Sanju Movie

Few lives in our times are as dramatic and enigmatic as the saga of Sanjay Dutt. Coming from a family of cinema legends, he himself became a film star, and then saw dizzying heights and darkest depths: adulation of die-hard fans, unending battles with various addictions, brushes with the underworld, prison terms, loss of loved ones, and the haunting speculation that he might or might not be a terrorist. Sanju is in turns a hilarious and heartbreaking exploration of one man’s battle against his own wild self and the formidable external forces trying to crush him. It depicts the journey of a man through everything that life can throw at him. Some true stories leave you thinking “did this really happen?” This is one such unbelievable story that happens to be true.

Format : Matroska 
Format version : Version 4 / Version 2 
File size : 798 MiB 
Duration : 2 h 28 min 
Overall bit rate : 750 kb/s 
Movie name : ::::Sanju 2018:::::: 
Encoded date : UTC 2018-06-29 12:55:34 
Writing application : mkvmerge v12.0.0 ('Trust / Lust') 64bit 
Writing library : libebml v1.3.4 + libmatroska v1.4.5 

Video 
ID : 1 
Format : AVC 
Format/Info : Advanced Video Codec 
Format profile : Main@L4 
Format settings : CABAC / 4 Ref Frames 
Format settings, CABAC : Yes 
Format settings, ReFrames : 4 frames 
Codec ID : V_MPEG4/ISO/AVC 
Duration : 2 h 28 min 
Bit rate : 619 kb/s 
Width : 720 pixels 
Height : 304 pixels 
Display aspect ratio : 2.35:1 
Frame rate mode : Constant 
Frame rate : 25.000 FPS 
Color space : YUV 
Chroma subsampling : 4:2:0 
Bit depth : 8 bits 
Scan type : Progressive 
Bits/(Pixel*Frame) : 0.113 
Stream size : 659 MiB (83%) 
Title : ::::www.TIPS4TRICX.blogspot.com:::::: 
Writing library : x264 core 148 
Default : Yes 
Forced : No 
Color range : Limited 
Color primaries : BT.601 PAL 
Transfer characteristics : BT.709 
Matrix coefficients : BT.601 

Audio 
ID : 2 
Format : AAC 
Format/Info : Advanced Audio Codec 
Format profile : LC 
Codec ID : A_AAC-2 
Duration : 2 h 28 min 
Bit rate : 128 kb/s 
Channel(s) : 2 channels 
Channel positions : Front: L R 
Sampling rate : 44.1 kHz 
Frame rate : 43.066 FPS (1024 SPF) 
Compression mode : Lossy 
Delay relative to video : -80 ms 
Stream size : 136 MiB (17%) 

Sanju 2018 Full movie Direct Torrent/IDM Download for Free

Sanju 2018 Full movie Direct Torrent/IDM Download for Free

Sanju 2018 Full movie Direct Torrent/IDM Download for Free2

Sanju 2018 Full movie Direct Torrent/IDM Download for Free3


download sanju 2018 full movie by its technoholic



Complete name : Sanju (2018) Hindi 2CD PreDvDRip x264 AAC-Officialhdmovies\Sanju (2018) Hindi 2CD PreDvDRip x264 AAC-Officialhdmovies.mkv 

Format : Matroska 

Format version : Version 4 / Version 2 

File size : 1.40 GiB 
Duration : 2 h 50 min 
Overall bit rate : 1 179 kb/s

DIRECT TORRENT DOWNLOAD


Sanju (2018) Hindi PDVDRip x264 AAC 850MB



DIRECT MAGNET DOWNLOAD



Click Here To Download [800MB]

WEBSITE WHERE YOU CAN DOWNLOAD




TAGSsanju movie release date
sanju movie trailer
sanju movie poster
sanju movie songs
sanju film cast
sanju cast
sanju release date

SANJU (2018) 1080P HINDI MOVIE DOWNLOAD
SANJU (2018) 300MB MOVIE DOWNLOAD
SANJU (2018) 480P MOVIE
SANJU (2018) 720P MOVIE
SANJU (2018) BOLLY DOENLOAD
SANJU (2018) BOLLYWOOD MOVIE DOWNLOAD
SANJU (2018) FREE HINDI MOVIE
SANJU (2018) FREE HINDI MOVIE DOWNLOAD
SANJU (2018) FULL FREE MOVIE
SANJU (2018) FULL FREE MOVIE DOWNLOAD
SANJU (2018) FULL HD HINDI MOVIE
SANJU (2018) FULL HD HINDI MOVIE DOWNLOAD
SANJU (2018) FULL HINDI MOVIE DOWNLOAD
SANJU (2018) FULL MOVIE WATCH ONLINE
SANJU (2018) FULL WATCH MOVIE
SANJU (2018) HD BOLLYWOOD
SANJU (2018) HD HINDI MOVIE DOWNLOAD
SANJU (2018) LATEST MOVIE DOWNLOAD
SANJU (2018) NEW HD MOVIE DOWNLOAD
SANJU (2018) NEW HINDI MOVIE DOWNLOAD
SANJU (2018) WATCH FREE ONLINE
Previous Post
Next Post

post written by:

0 Google+:

Please Keep in mind that if there is a link in your comment section it will be considered as spam. Comment with link will be removed instantly.
Comment to get answered or to solve a problem not to spam. Thanks